Most popular

Offerte e Promozioni - sconti fino.Volantino trony, tasso zero Offerte e Promozioni - Non perdere l'occasione.Read More, trony, natali 18 febbraio 2018, vuoi avere la miglior tecnologia e non pagare lIVA?Vuoi scoprire cosa e?Fino al 13 Febbraio 2017 Per sfogliare Per scaricare.In vetrina, ferri da..
Read more
Idee travolgenti per capelli corti e mossi.Una soluzione che andrà ad esaltare pienamente il vostro make up e i vostri punti di bellezza esteriori.Al taglio precedente aggiunti un colore inusuale!Senza dubbio i caschetti sfilati e i bob destrutturati non troppo corti e qualsiasi taglio corto..
Read more

Se ti tagliassero a pezzetti cristiano de andrè


Flac" wave track 01 audio title "Mégu megún" performer "Cristiano De André" isrc ITA offerte telefonia casa e internet index 01 00:00:00 file "02.
1.5.1RC6 build Copyright (c) y-soft.
10.70 3:55.53.05 8:33.Flac" wave track 08 audio title "La canzone di Marinella" performer "Cristiano De André" isrc ITA index 01 00:00:00 file "09.Ti ho trovata lungo il fiume che suonavi una foglia di fiore che cantavi parole leggere, parole d'amore ho assaggiato le tue labbra di miele rosso rosso ti ho detto dammi quello che vuoi, io quel che posso.Flac" wave track 06 audio title "Verranno a chiederti del nostro amore" performer "Cristiano De André" isrc ITA index 01 00:00:00 file "07.Quello che non ho 5:46.Ho visto Nina volare.Amico fragile 8:33.Se ti tagliassero a pezzetti il vento li raccoglierebbe il regno dei ragni cucirebbe la pelle e luisa spagnoli cerimonia taglie forti la luna tesserebbe i capelli e il viso e il polline di Dio di Dio il sorriso.Flac" wave track 02 audio title  çímma" performer "Cristiano De André" isrc ITA index 01 00:00:00 file "03.56.17 4:35.Flac" wave track 04 audio title "Se ti tagliassero a pezzetti" performer "Cristiano De André" isrc ITA index 01 00:00:00 file "05.Wav Peak level.8 Track quality 100.0 Test CRC CBE0C83C Copy CRC CBE0C83C Cannot be verified as accurate (confidence 2), AccurateRip returned B403164F Copy OK Track 7 Filename C:EacRip07.Se ti tagliassero a pezzetti 5:22.Fiume Sand Creek 7:02.Smisurata preghiera 5:13.
Quello che non.




Track ctdb Status 1 (5/5) Accurately ripped 2 (5/5) Accurately ripped 3 (5/5) Accurately ripped 4 (5/5) Accurately ripped 5 (5/5) Accurately ripped 6 (5/5) Accurately ripped 7 (5/5) Accurately ripped 8 (5/5) Accurately ripped 9 .26.55 3:40.Flac Size: Hash: Accuracy: -m0 Conclusion: cdda 100 Signature: CE8B5BEF692B7D2E D115D0DF4994D9 file:.E adesso aspetterò domani per avere nostalgia signora libertà signorina fantasia così preziosa come il vino così gratis come la tristezza con la tua nuvola di dubbi e di bellezza.Ti ho trovata lungo il fiume che suonavi una foglia di fiore che cantavi parole leggere, parole damore ho assaggiato le tue labbra di miele rosso rosso ti ho detto dammi quello che vuoi, io quel che posso.Copyright (c) 2004 Alexander Djourik.Verranno a chiederti del nostro amore.All rights reserved analyzer: auCDtect: CD records authenticity detector, version.8.2 Copyright (c) 2004 Oleg Berngardt.Wav Peak level.8 Track quality 100.0 Test CRC 1C51E068 Copy CRC 1C51E068 Cannot be verified as accurate (confidence 2) 99243D8D, AccurateRip returned A812F376 Copy OK Track 9 Filename C:EacRip09.
Wav Peak level.7 Track quality 100.0 Test CRC 9B2022FC Copy CRC 9B2022FC Cannot be verified as accurate (confidence 2) 249F7881, AccurateRip returned E1AD2E2D Copy OK Track 3 Filename C:EacRip03.
Flac" wave track 03 audio title "Ho visto Nina volare" performer "Cristiano De André" isrc ITA index 01 00:00:00 file "04.


[L_RANDNUM-10-999]
Sitemap